#TITLE:!(Z)x(Z)!;
#SUBTITLE:;
#ARTIST:Sidewinder;
#TITLETRANSLIT:;
#SUBTITLETRANSLIT:;
#ARTISTTRANSLIT:;
#CREDIT:;
#BANNER:!(z)X(z)!.png;
#BACKGROUND:!(z)X(z)!- bg.png;
#LYRICSPATH:;
#CDTITLE:HSElogo.png;
#MUSIC:(z)x(x).ogg;
#OFFSET:0.000;
#SAMPLESTART:32.360;
#SAMPLELENGTH:12.000;
#SELECTABLE:YES;
#BPMS:0.000=200.000,16.000=399.998,111.000=400.000,112.000=100.001,114.000=400.000,122.000=100.000,124.500=399.998,134.000=100.000,137.000=399.998,276.000=4000.000,320.000=399.998,331.000=4000.000,368.000=400.000,380.000=4000.000,432.000=400.000,443.000=350.000,443.500=300.000,444.000=250.000,444.500=200.000,445.000=99.999,449.000=399.999,451.000=200.000,483.000=399.998,547.000=99.999,549.000=399.998,552.500=99.999,556.000=399.998,558.000=99.999,559.000=399.997,561.000=99.999,564.000=399.997,565.000=124.999,566.000=399.997,648.000=124.999,650.000=199.999,714.000=399.997,779.000=1000000013848427900000000.000,815.000=0.010;
#STOPS:136.750=0.080
,304.000=0.100
,552.500=0.040
;
#BGCHANGES:;
// cache tags:
#FIRSTBEAT:12.000;
#LASTBEAT:815.000;
#SONGFILENAME:Songs/Music V.I.P ^_^/!(z)X(z)!/!(z)X(z)!.sm;
#HASMUSIC:1;
#HASBANNER:1;
#MUSICLENGTH:130.128;
// end cache tags

//---------------dance-single - ----------------
#NOTES:
     dance-single:
     :
     Hard:
     10:
     0.849,1.000,0.254,0.715,0.150,647.000,33.000,93.000,150.000,0.000:
0000
0000
0000
0000
,
0000
0000
0000
0000
,
0000
0000
0000
0000
,
1001
0000
0000
0100
0010
0000
0000
0010
0200
0000
0000
0000
0302
0000
0000
0000
,
1003
0000
1000
0000
0010
0100
0000
0000
,
0001
1000
0000
0000
0001
0000
0010
0000
,
0100
0000
1000
0000
0100
0010
0000
0000
,
0002
0000
0023
0000
0230
1000
0300
0000
,
0010
0000
0100
0000
0001
1000
0000
0000
,
0010
0100
0000
0000
0001
0000
1000
0000
,
0001
0000
1000
0000
0100
0010
0000
0000
,
0001
0000
1000
0000
0010
0100
0000
0000
,
0001
0100
0001
0200
,
0310
1000
0010
0200
,
0310
0010
1001
0200
,
0300
MMMM
0010
0100
,
0001
0100
1020
0130
,
0001
0010
2100
3010
,
0100
0000
0000
0000
0001
0000
0000
0000
0100
0000
0000
0000
0020
0000
0000
0030
,
0000
MMMM
1000
0001
,
0000
0000
1000
0100
1000
0001
0100
0001
,
1000
0010
1000
0001
0010
0001
1000
0000
,
0001
1000
0001
0100
,
0001
0101
0000
1010
,
2000
3000
0002
0003
0020
0030
0200
0300
,
2000
3000
0020
0030
0100
0000
0001
0000
,
1000
0000
0010
0000
0100
0001
0000
0000
,
0010
0100
2000
3002
,
0203
0000
M000
00M0
0000
0000
000M
0000
20M0
0000
0000
000M
0000
00M0
0000
00MM
,
3000
0000
000M
00M0
M000
000M
0000
0000
M0M0
0000
0000
0000
M0MM
0000
0000
0000
,
M0MM
0000
0000
0000
0000
0000
0000
0000
0000
0000
0000
0000
0000
0000
0000
0000
0000
0000
0000
0000
0000
0000
0000
0000
0000
0000
0000
0000
0000
0000
0000
0000
0000
0000
0000
0000
0000
0000
0000
0000
0000
0000
0000
0000
0000
0000
0000
0000
M0M0
0000
0000
0000
0000
0000
0000
0000
000M
0000
0000
0000
0000
0000
0000
0000
0000
0000
0000
0000
0000
0000
0000
0000
0000
0000
0000
0000
0000
0000
0000
0000
0000
0000
0000
0000
0000
0000
0000
0000
0000
0000
0000
0000
0000
0000
0000
0000
M001
0000
0000
0000
0000
0000
0000
0000
0000
0000
0000
0000
0000
0000
0000
0000
0000
0000
0000
0000
0000
0000
0000
0000
0010
0000
0000
0000
0000
0000
0000
0000
0000
0000
0000
0000
0000
0000
0000
0000
000M
0000
0000
0000
0000
0000
0000
0000
1000
0000
0000
0000
0000
0000
0000
0000
0000
0000
0000
0000
0000
0000
0000
0000
0000
0000
0000
0000
0000
0000
0000
0000
0320
0000
0000
0000
0000
0000
0000
0000
M000
0000
0000
0000
0000
0000
0000
0000
0000
0000
0M00
0000
0000
0000
0000
0000
,
000M
0000
M200
0000
0000
000M
M000
0000
000M
0000
M000
0000
000M
0000
M000
0000
,
000M
M000
000M
0000
M00M
0000
0000
000M
M000
0000
0000
000M
0000
M000
000M
0000
,
0000
M00M
0000
0000
M33M
M00M
0000
0MM0
0000
0000
0000
0MM0
0000
M00M
0000
0000
,
0000
0MM0
0000
0000
1001
0000
0000
0000
0001
0000
0000
0000
0010
0000
0000
0000
,
0100
1000
0001
0010
,
0100
1000
0001
0100
,
1000
0100
0001
0010
,
1000
0010
0001
0100
,
0010
1000
0001
0100
,
0001
0000
1000
0100
1000
0100
0010
0001
,
0010
0001
1000
0100
1000
0001
0010
0001
,
2000
3010
0100
0001
,
0100
0010
1000
0001
,
0100
0010
0001
0010
,
1000
0100
0001
0100
,
1000
0001
0100
0001
,
0010
0001
0100
0001
,
1000
0000
0100
0010
0100
0010
0001
1000
,
0001
1000
0010
0100
0001
1000
0010
0100
,
0002
2003
3100
2000
,
3010
2000
3001
2000
,
3100
0110
0000
0001
,
0022
0033
0001
0100
,
0010
0010
0200
0301
,
0200
0310
0200
0301
,
0200
0320
0000
0130
,
0200
0000
0000
0000
0300
000M
00M0
0M00
,
M000
0002
0013
0002
,
1003
0002
0013
0002
,
1003
1001
0000
1000
,
2020
3030
0010
1000
,
1000
0020
0130
0020
,
0030
MMMM
0202
0303
,
MMMM
MMMM
MMMM
2020
,
3030
0020
2030
3002
,
0000
M003
000M
M000
,
000M
M000
000M
M000
,
000M
M00M
0000
M000
,
MM00
0000
0000
0000
,
0000
0000
0000
0000
,
0000
0000
0000
0000
,
0000
0000
0000
0000
,
0000
0000
0000
0000
,
0000
0000
0000
0000
,
0000
0000
0000
0000
,
0000
0000
0000
0000
,
0000
0000
0000
0000
,
0000
0000
0000
0000
,
0000
0000
0000
0000
,
1000
0001
1000
0001
,
1000
0001
1000
0001
,
1001
0000
1000
1100
,
0000
0000
0000
0000
,
0000
0000
0000
0000
,
0000
0000
0000
0000
,
0000
0000
0000
0000
,
0000
0000
0000
0000
,
0000
0000
0000
0000
,
0000
0000
0000
0000
,
0000
0000
0000
0000
,
0000
0000
0000
0000
,
0000
00M0
0M00
00M0
,
0M00
00M0
0M00
00M0
,
0M00
0MM0
0000
MMMM
,
MMMM
0000
0000
0000
,
0000
0000
0000
0000
,
0000
0000
0000
0000
,
0000
0000
0000
0000
,
0000
0000
0000
0000
,
0000
0000
0000
0000
,
0000
0000
0000
0000
,
0000
0000
0000
0000
,
0000
0000
0000
0000
,
0000
0000
0000
0000
,
0000
0000
0000
0000
,
0000
0000
0000
0000
,
0000
0000
0000
0000
,
0010
0100
0010
0100
,
0010
0100
0010
0100
,
0110
0000
M1M1
2M2M
,
3000
0000
0000
0000
0000
0000
0130
0000
0100
0000
0100
0000
0100
0000
0100
0001
,
0100
0001
0200
0000
0302
0000
0000
0000
0003
0000
0000
0000
1000
0000
0000
0000
,
0001
0000
0010
0001
1000
0000
0000
0000
0100
0000
0010
0001
1000
0000
0001
0000
,
0100
0000
0000
0000
0010
1000
0010
0000
0100
0000
0001
0000
1000
0010
1000
0010
,
1000
0001
0100
0010
0100
0001
1000
0000
,
1000
0001
0100
0000
0010
0100
0110
0000
,
0101
0000
0000
0000
0000
0000
1010
000M
0000
00M0
0000
0M00
0000
M000
0000
0000
,
1010
0000
0000
0000
1000
0000
0100
0000
0010
0000
0000
0010
0001
0000
0001
0000
,
1000
1000
0001
0010
0100
1000
0010
0100
,
0010
0000
1000
0000
0001
0100
0010
1000
0100
0010
0001
1000
0010
0000
0000
0000
,
0100
0001
0100
0010
,
1000
0010
0001
0110
,
0000
0010
2000
0000
,
0000
0000
0000
3100
,
0010
0001
0010
1000
,
0010
0001
0100
1001
,
0000
0010
0200
0000
,
0000
0000
0000
0310
,
1000
0001
0100
0001
,
0010
0100
1000
1100
,
0000
0010
0002
0000
,
0000
0000
0000
1003
,
0100
0001
0100
1000
,
0010
1000
0001
0011
,
0000
0100
2000
0000
,
0000
0000
0000
3100
,
0000
0000
0001
0100
0001
0000
1000
0100
,
1000
0000
0000
0000
,
0010
0100
0001
0000
0000
0000
1000
0010
,
0100
0000
0000
0000
,
0001
1000
0010
0000
0100
0001
0100
0000
,
0010
1000
0010
0000
1000
0001
1000
0000
,
0100
0010
0100
0000
0010
0001
0010
0000
,
0100
0010
0100
0000
1000
0001
1000
0000
,
0010
0100
0010
0000
1000
0100
1000
0000
,
0001
0100
0001
0000
1000
0010
1000
0000
,
0001
0010
0001
0000
1000
0000
0100
0000
,
0010
0001
1000
0100
,
0010
0000
0001
0000
1000
0100
1000
0000
,
0010
0100
0010
0000
1000
0001
1000
0000
,
0001
0100
0001
0000
0010
0100
0010
0000
,
0001
1000
0001
0000
1000
0001
1000
0000
,
0010
0100
0010
0000
1000
0001
1000
0000
,
0001
0010
0001
0000
1000
0010
1000
0000
,
0001
1000
0001
0000
0100
0000
0010
0000
,
1000
0100
0010
0001
,
1000
0020
0230
2300
,
3200
0302
0023
0032
,
2003
3200
0320
0000
,
0000
0000
0000
0000
,
0000
0000
0000
0000
,
0030
0000
0000
0000
0001
1000
0100
0001
,
0100
1000
0010
0010
0200
0000
0301
0020
,
0000
0030
MMMM
0000
0100
1000
0010
0100
,
0001
0100
0010
1000
0200
0000
0310
0002
,
0000
0003
MMMM
0000
1000
0010
0100
0001
,
0100
1000
0100
0001
0020
0000
0130
2000
,
0000
3000
MMMM
0000
0100
0010
0001
1000
,
0001
0000
0000
0010
0000
0000
0100
0000
0000
1000
0000
0000
2200
0000
0000
0000
3300
0000
0001
0000
0000
2020
0000
0000
,
0000
3030
MMMM
0000
1001
0001
0100
0010
,
0100
0001
0010
0100
2000
0000
3010
1000
,
0200
0000
0010
0310
1000
0001
0100
0010
,
1000
0100
1000
0001
0202
0303
0010
2200
,
0000
3300
MMMM
0000
0100
0010
0001
1000
,
0010
0100
0001
1000
0020
0000
0130
0010
,
2000
0000
3100
0010
0100
1000
0001
1000
,
0001
0010
0100
1000
2020
3030
0100
0022
,
0000
0033
MMMM
0000
1000
0000
0010
0000
,
1000
0001
0010
0001
,
0100
0010
0100
0001
,
0010
0100
1000
0100
,
0001
0100
1000
0010
,
0100
0001
0100
1000
,
0100
0001
0010
1000
,
0010
0001
0100
0010
,
1000
0001
0100
0001
1000
0000
0100
0000
,
0010
0001
0010
1000
,
0010
0001
0100
1000
,
0100
0001
0010
0100
,
1000
0010
0100
0001
,
1000
0010
0100
0001
,
1000
0010
0100
0001
,
1000
0010
0100
0001
,
1000
0100
0010
0001
0100
0020
0000
0000
,
0000
0000
0000
0000
,
0000
0000
0000
0000
,
0000
0000
0000
0000
,
0000
0000
0000
0000
,
0000
0000
0000
0000
,
0000
0000
0000
0000
,
0000
0000
0000
0000
,
0000
0000
0000
0000
,
0000
0000
0000
0030
;

//---------------dance-single - ----------------
#NOTES:
     dance-single:
     :
     Challenge:
     13:
     1.000,1.000,0.699,0.730,0.488,807.000,91.000,95.000,713.000,0.000:
0000
0000
0000
0000
,
0000
0000
0000
0000
,
0000
0000
0000
0000
,
1001
0000
0000
0000
0000
0000
0000
0000
0000
1000
0000
0000
1100
0000
0000
0000
0000
0000
0000
0000
0000
0001
0000
0000
0011
0000
0000
0000
0000
0000
0000
0000
0000
0000
0000
0000
1000
0000
0001
0000
1000
0000
0000
0000
0000
0000
0000
0000
,
0010
0000
0100
0000
0001
1000
0001
0000
,
1000
0010
1000
0000
0001
0000
0100
0000
,
0010
0000
0100
0000
0001
0100
0010
0000
,
1000
0000
1100
0000
0100
0010
0002
0000
,
1003
0000
0010
0000
0100
0001
0100
0000
,
0010
1000
0001
0000
0100
0000
0010
0000
,
1000
0000
0100
0000
0010
0001
1000
0000
,
1010
0000
0001
0000
0100
0010
1000
0001
,
01M0
0110
100M
1001
,
01M0
0110
M001
1001
,
0200
0320
0230
0301
,
2000
0MMM
0000
0000
3100
0000
0010
0000
,
M001
0101
100M
1010
,
M001
0011
100M
1100
,
0002
0203
0320
1030
,
0002
MMM0
0000
0000
1003
0000
1001
0000
,
0001
1000
0100
0010
0001
0010
0100
1000
,
0001
0100
0010
1000
0100
1000
0001
0010
,
0001
1000
0100
1000
0100
1000
0001
0010
,
0001
0010
0002
0000
0003
0000
2000
0000
,
3010
0100
0001
0100
,
0010
1000
0200
0320
,
0031
0000
1000
0000
0010
0100
0001
0000
,
1000
0100
0010
0001
,
1000
0100
1000
0100
1000
0100
1000
0100
1000
0100
1000
0100
1000
0100
1000
0100
1000
0000
0000
0000
0000
0000
0000
0000
MMMM
0000
0000
0000
0000
0000
MM0M
0000
,
00M0
0M00
M000
00M0
000M
0M00
M000
00M0
0M00
000M
M000
00M0
0M00
000M
00M0
M000
,
0M00
0000
00MM
0000
M000
0000
00M0
0000
0M00
0000
M00M
0000
00M0
0000
MM00
0000
0001
0000
0000
0001
0100
0000
0000
0100
0010
0000
0000
0010
1000
0000
0000
1000
,
0001
0000
1001
0000
0M00
00M0
M000
000M
00M0
0M00
000M
M000
0MM0
M000
000M
00M0
,
0M00
M000
00M0
0M00
000M
M000
0MM0
M00M
0M00
00M0
0M0M
M000
00M0
0M00
000M
M000
,
00M0
0000
0000
0M00
0000
0000
M00M
0000
0000
0000
0000
0000
M0MM
0000
0000
0M00
0000
0000
0000
0000
00M0
0000
0000
0000
2002
0000
0000
0000
0000
0000
0MM0
0000
0000
0000
0000
0000
0MM0
0000
0000
0000
0000
0000
0MM0
0000
0000
0000
0000
0000
,
3MM3
MMMM
1001
0000
1001
0000
0100
0000
,
0010
1001
1001
0010
,
0100
1100
1100
0010
,
0100
0101
0101
0010
,
1000
0001
0100
0010
,
0100
0001
0100
0010
,
0100
0000
0001
0010
0100
1000
0010
0100
,
0001
1000
0100
0010
0001
1000
0010
0100
,
0001
1000
0010
0000
0100
0000
0110
0000
,
0110
0001
1000
1100
,
1100
0010
0001
1001
,
1001
0100
0010
1010
,
1010
0100
0001
0100
,
0010
0100
0001
0100
,
0010
0000
0100
0001
1000
0100
1000
0001
,
0010
0100
1000
0010
0100
0001
1000
0100
,
1000
0001
0020
0000
0230
00M0
2300
0M00
,
3200
M000
0320
0M00
0032
00M0
0023
000M
,
0230
00M0
2300
0M00
0000
0000
3002
M000
,
0203
M00M
M00M
M00M
M01M
M0MM
M01M
M0MM
,
M31M
00M0
2000
0000
3002
M000
0203
000M
,
0302
0M00
2003
000M
3020
M000
0230
00M0
,
0302
0M00
2003
000M
0000
0000
3200
M000
,
0320
MM0M
MM0M
MM0M
MM0M
MM0M
MM0M
MM0M
,
MM0M
0030
0002
0000
0203
000M
0320
0M00
,
2030
00M0
3020
M000
0230
00M0
0302
0M00
,
2003
000M
3020
M000
0000
0000
0230
00M0
,
0302
0M00
0000
0000
1000
M000
1000
M000
,
1003
0000
0000
M000
0000
0000
0001
0000
0000
0000
0000
0000
0100
0000
0000
0000
0000
0000
2002
0000
3003
0000
0000
0000
,
0000
MMMM
0000
0000
1100
0000
MMMM
0000
,
MMMM
MMMM
MMMM
MMM1
,
MMMM
0000
0020
0000
0200
0300
2000
0000
,
3030
0000
0000
0000
MM0M
MM00
MM00
MM00
MM0M
MM00
MM00
MM00
MM0M
MM00
MM00
MM00
,
MM0M
MM00
MM00
MM00
MM0M
MM00
MM00
MM00
MM0M
MM00
MM00
MM00
MM0M
MM00
MM00
MM00
,
MM0M
MM00
MM00
MM00
MM0M
0000
0000
0000
0000
0000
0000
0000
000M
0000
0000
0000
,
MM00
0000
0000
0000
,
0000
0000
0000
0000
,
0000
0000
0000
0000
,
0000
0000
0000
0000
,
0000
0000
0000
0000
,
0000
0000
0000
0000
,
0000
0000
0000
0000
,
0000
0000
0000
0000
,
0000
0000
0000
0000
,
0000
0000
0000
0000
,
0000
0000
0000
0000
,
MM01
MM00
MM01
MM00
MM01
MM00
MM01
MM00
,
MM01
MM00
MM01
MM00
MM01
MM00
MM01
MM00
,
MM01
0000
0001
1100
,
0000
0000
0000
0000
,
0000
0000
0000
0000
,
0000
0000
0000
0000
,
0000
0000
0000
0000
,
0000
0000
0000
0000
,
0000
0000
0000
0000
,
0000
0000
0000
0000
,
0000
0000
0000
0000
,
0000
0000
0000
0000
,
0000
0000
0000
0000
MM0M
M00M
M00M
M00M
MM0M
M00M
M00M
M00M
MM0M
M00M
M00M
M00M
,
MM0M
M00M
M00M
M00M
MM0M
M00M
M00M
M00M
MM0M
M00M
M00M
M00M
MM0M
M00M
M00M
M00M
,
MM0M
M00M
0000
00M0
,
M00M
0000
0000
0000
,
0000
0000
0000
0000
,
0000
0000
0000
0000
,
0000
0000
0000
0000
,
0000
0000
0000
0000
,
0000
0000
0000
0000
,
0000
0000
0000
0000
,
0000
0000
0000
0000
,
0000
0000
0000
0000
,
0000
0000
0000
0000
,
0000
0000
0000
0000
,
0000
0000
0000
0000
,
0000
0000
0000
0000
,
M10M
M00M
M10M
M00M
M10M
M00M
M10M
M00M
,
M10M
M00M
M10M
M00M
M10M
M00M
M10M
0000
,
1001
0000
0100
2MM2
,
3MM3
0000
M00M
0000
0MM0
0000
0001
0000
0101
0000
0100
0000
0110
0000
0010
1000
,
0100
0000
0010
0000
0001
1000
0010
0100
0002
0000
0000
0000
0000
0000
0000
0000
MMM0
0000
0000
0000
0000
0000
0000
0000
2003
0000
0000
0000
0000
0000
3000
0000
,
0001
0000
0100
0010
0100
0000
0000
0MM0
1000
0000
0001
0100
0010
0000
0010
0M00
,
0M10
0000
0000
0000
0000
0000
0000
0000
1000
0000
0001
0000
0100
0000
0000
0000
0010
0000
0000
0000
0010
0000
0000
0000
1000
0001
1000
0001
1000
0001
1000
0001
,
1000
0100
0010
0100
0001
M0M1
0101
0000
,
0010
0M0M
0010
0000
1010
0000
0000
0000
10M0
0000
010M
0000
0110
0000
M000
0000
,
0011
0000
M000
0000
0100
0000
M011
0000
0000
0000
MMMM
0000
0000
0MM0
M00M
0000
,
0210
0000
0000
0000
0000
0000
0000
0000
0000
0000
0000
0000
1000
0000
0000
0000
0000
0000
0010
0000
0300
0000
0000
0000
0002
0000
0000
0000
0000
0000
0000
0000
0000
0103
0000
0000
0010
0000
0000
0000
0000
0000
1000
0000
0000
0000
0000
0000
,
0001
0100
0010
1000
0100
0100
0010
0001
,
0010
0000
0100
0000
1000
0010
1000
0010
0100
0001
0100
0001
2000
0000
0000
0000
,
0010
0100
3001
0020
,
0100
0001
0130
0110
,
MMMM
MM11
22MM
33MM
,
MMMM
MMMM
MMMM
0002
,
0100
0010
1003
0200
,
0010
1000
0310
0110
,
MMMM
11MM
MM22
MM33
,
MMMM
MMMM
MMMM
1MM1
,
1MM1
M11M
1MM1
M11M
,
M11M
1MM1
M11M
2MM2
,
3MM3
MM11
M2M2
M3M3
,
MMMM
MMMM
MMMM
1M1M
,
1M1M
M1M1
M1M1
1M1M
,
M1M1
1M1M
M1M1
M22M
,
M33M
1MM1
2M2M
3M3M
,
MMMM
0000
0000
0000
MMMM
0000
0000
0000
MMMM
0000
0000
0000
M000
00M0
0M00
0000
,
000M
0000
0MM0
0000
100M
0000
0100
0000
M001
00M0
0000
0000
0001
00M0
0100
00M0
,
1000
0000
0M0M
0000
00M0
M000
0000
000M
0M00
00M0
0000
M00M
0000
0M00
00M0
0000
,
100M
0000
0010
0M00
0001
0000
0000
MM00
00M0
0000
0M00
0000
M001
00M0
0100
0000
,
1000
0000
00MM
0M00
0000
M000
0MM0
0000
0000
000M
0000
M0M0
0000
0M00
0000
0000
,
1000
00M0
0001
0000
0100
M000
0000
0000
0010
0000
1000
0000
0010
0000
0100
0000
,
0010
1000
0010
0100
0010
1000
0010
0100
,
0010
1000
0010
0100
0001
1000
0001
0010
,
0001
1000
0001
0010
0001
1000
0001
0010
,
0001
1000
0001
0010
0100
1000
0010
0100
,
0001
1000
0100
1000
0010
0100
0001
0010
,
0100
1000
0010
0100
0001
1000
0010
0100
,
0001
0100
0010
1000
0100
0010
0001
1000
,
0100
1000
0001
0010
0001
0100
0001
0010
,
0001
0100
0001
0010
0001
0100
0001
0010
,
0001
0100
0010
1000
0001
0100
0010
1000
,
0100
0010
0001
0100
0010
1000
0100
1000
,
0001
0010
0001
0100
0010
1000
0100
1000
,
0010
0100
0001
1000
0100
1000
0010
0100
,
0001
1000
0100
1000
0001
0010
0100
1000
,
0001
0010
0100
1000
0001
0010
0100
1000
,
0001
0010
0100
1000
0010
0100
0001
1000
,
0010
0100
0010
1000
0100
1000
0001
0100
,
0010
1000
0100
0010
0002
0000
MMM0
MMM0
,
MMM0
MMM0
MMM0
MMM0
MMM0
MMM0
MMM0
MMM0
,
MMM0
0000
0000
0000
0000
0000
0000
0000
MMM0
0000
0000
0000
0000
0000
0000
0000
MMM0
0000
0000
0000
0000
0000
0000
0000
MMM0
0000
0000
0000
0000
0000
0000
0000
MMM0
0000
0000
0000
0000
0000
0000
0000
MMM0
0000
0000
0000
0000
0000
0000
0000
MMM3
0000
0000
0000
0000
0000
0000
0000
MMM0
0000
0000
0000
0000
000M
000M
000M
,
MMMM
0000
0000
0000
0M00
00M0
000M
M000
01M0
0000
M101
0000
01M0
0000
M101
0000
,
01M0
M101
01M0
M101
0002
0000
0013
0200
,
0000
0300
0000
0000
100M
11M0
100M
11M0
,
100M
11M0
100M
11M0
2000
0000
3001
0020
,
0000
0030
0000
0000
0000
0000
0000
0000
010M
0000
M110
0000
010M
0000
M110
0000
,
010M
M110
010M
M110
020M
0000
1300
0020
,
0000
0000
0030
0000
0000
0000
0000
0000
0000
0000
0000
0000
01M0
0000
0000
0101
0000
0000
M001
0000
0000
0M11
0000
0000
,
0010
M11M
0100
10M1
2002
30M3
0100
20M2
,
30M3
00M0
MMMM
0000
0001
0100
1000
0100
,
0001
0100
1000
0100
0002
0000
0013
0200
,
2000
0300
3100
0100
0010
0001
0010
1000
,
0010
0001
0010
1000
0020
0000
0031
0010
,
0000
0000
0000
0000
0100
1000
0010
0100
,
0001
1000
0100
0001
0200
0000
1300
0020
,
0032
0000
0010
0013
0001
0010
1000
0100
,
0001
0100
1000
0010
0200
0000
0301
0010
,
0000
0000
0000
0000
1000
0100
1000
0001
,
0010
0001
1000
0010
1000
0001
0100
0001
,
1000
0100
0010
0001
1000
0010
0100
0001
,
0100
0010
1000
0100
1000
0010
0100
0001
,
1000
0010
0100
0010
1000
0100
0010
0001
,
1000
0010
0100
0001
0010
0100
1000
0010
,
0100
0001
0010
0100
1000
0010
0100
0010
,
1000
0001
0100
0001
1000
0010
0100
0010
,
1000
0100
0010
0001
1000
0010
0100
0001
,
0100
0010
1000
0001
0100
0010
1000
0100
,
0010
0001
1000
0001
1000
0010
0100
0010
,
1000
0001
0100
0010
1000
0100
0010
0001
,
0010
0100
1000
0010
0100
0001
1000
0010
,
0100
0001
1000
0010
0100
0010
1000
0100
,
0010
0001
1000
0010
0100
0001
0010
0100
,
1000
0001
0010
0001
1000
0010
1000
0001
,
0100
0001
1000
0010
0100
0020
0000
0000
,
0000
0000
0000
0000
,
0000
0000
0000
0000
0000
0030
0000
0000
;

//---------------dance-single - ----------------
#NOTES:
     dance-single:
     :
     Beginner:
     3:
     0.097,0.222,0.031,0.000,0.000,84.000,4.000,0.000,0.000,0.000:
0000
0000
0000
0000
,
0000
0000
0000
0000
,
0000
0000
0000
0000
,
0000
0000
0000
0000
,
1000
0000
0000
0000
,
0000
0000
0000
0000
,
0001
0000
0000
0000
,
0000
0000
0000
0000
,
1000
0000
0000
0000
,
0000
0000
0000
0000
,
0001
0000
0000
0000
,
0000
0000
0000
0000
,
0100
0000
0000
0000
,
0000
0000
0000
0000
,
0100
0000
0000
0000
,
0000
0000
0000
0000
,
0010
0000
0000
0000
,
0000
0000
0000
0000
,
0010
0000
0000
0000
,
0000
0000
0000
0000
,
1000
0000
0000
0000
,
0000
0000
0000
0000
,
0001
0000
0000
0000
,
0000
0000
0000
0000
,
1000
0000
0000
0000
,
0000
0000
0000
0000
,
0001
0000
0000
0000
,
0000
0000
0000
0000
,
0100
0000
0010
0000
,
0000
0000
0000
0000
,
0000
0000
0010
0000
,
0010
0000
0000
0000
,
0000
0000
0000
0000
,
0000
0000
0000
0000
,
0000
1000
0000
0000
,
0000
0000
0000
0000
,
0001
0000
0000
0000
,
0000
0000
0000
0000
,
0000
1000
0000
0000
,
0000
0000
0000
0000
,
0000
0010
0000
0000
,
0000
0000
0000
0000
,
0100
0000
0000
0000
,
0000
0000
0000
0000
,
0010
0000
0000
0000
,
0000
0000
0000
0000
,
0100
0000
0000
0000
,
0000
0000
0000
0000
,
0010
0000
0000
0000
,
0000
0000
0000
0000
,
1000
0000
0000
0000
,
0000
0000
0000
0000
,
0000
0100
0000
0000
,
0000
0000
0000
0000
,
0000
0010
0000
0000
,
0000
0000
0000
0000
,
0000
0001
0000
0000
,
0000
0000
0000
0000
,
0000
0010
0000
0000
,
0000
0000
0000
0000
,
0000
0100
0000
0000
,
0000
0000
0000
0000
,
0000
1000
0000
0000
,
0000
0000
0000
0000
,
0000
0010
0000
0000
,
0000
0000
0000
0000
,
0000
0100
0000
0000
,
0000
0000
0000
0000
,
0000
0100
0000
0000
,
0000
0000
0000
0000
,
0000
0000
0000
0000
,
0000
0000
0000
0000
,
0000
0000
0000
0000
,
0000
0000
0000
0000
,
0000
0000
0000
0000
,
0000
0000
0000
0000
,
0000
0000
0000
0000
,
0000
0000
0000
0000
,
0000
0000
0000
0000
,
0000
0000
0000
0000
,
0000
0000
0000
0000
,
0000
0000
0000
0000
,
0000
0000
0000
0000
,
0000
0000
0000
0000
,
0000
0000
0000
0000
,
0000
0000
0000
0000
,
0000
0000
0000
0000
,
0000
0000
0000
0000
,
0000
0000
0000
0000
,
0000
0000
0000
0000
,
0000
0000
0000
0000
,
0000
0000
0000
0000
,
0000
0010
0000
0000
,
0000
0000
0000
0000
,
0000
0010
0000
0000
,
0000
0000
0000
0000
,
0000
0000
0000
0000
,
0000
0000
0000
0000
,
0000
0000
0000
0000
,
0000
0000
0000
0000
,
0000
0000
0000
0000
,
0000
0000
0000
0000
,
0000
0000
0000
0000
,
0000
0000
0000
0000
,
0000
0000
0000
0000
,
0000
0000
0000
0000
,
0000
0000
0000
0000
,
0000
0000
0000
0000
,
0000
0000
0000
0000
,
0000
0000
0000
0000
,
0000
0000
0000
0000
,
0000
0000
0000
0000
,
0000
0000
0000
1000
,
0000
0100
0000
0010
,
0000
0000
0000
0001
,
0000
0010
0000
0100
,
0000
0000
0000
0000
,
0000
0000
0000
1000
,
0000
0000
0000
0000
,
0000
0010
0000
0000
,
0000
0100
0000
0001
,
0000
0000
0000
0000
,
0000
0000
0000
1000
,
0000
0000
0000
0000
,
0000
0000
0000
0010
,
0000
0000
0000
0000
,
0000
0000
0000
0100
,
0000
0000
0000
0000
,
0000
0000
0000
0010
,
0000
0000
0000
0000
,
0000
0000
0000
0100
,
0000
0000
0000
0000
,
0000
0000
0000
0001
,
0000
0000
0000
0000
,
0000
0000
0000
1000
,
0000
0000
0000
0000
,
0000
0000
0010
0000
,
0000
0000
0000
0000
,
0000
0000
0000
0000
,
0010
0000
0000
0000
,
0000
0000
0000
0000
,
1000
0000
0000
0000
,
0000
0000
0000
0000
,
0000
0000
0000
0000
,
0000
0000
0000
0000
,
0000
0000
0010
0000
,
0000
0000
0000
0000
,
0000
0000
0010
0000
,
0000
0000
0000
0000
,
0000
0000
1000
0000
,
0000
0000
0000
0000
,
0000
0000
0001
0000
,
0000
0000
0000
0000
,
0000
0000
1000
0000
,
0000
0000
0000
0000
,
0000
0000
0010
0000
,
0000
0000
0000
0000
,
0000
0000
0000
0100
,
0000
0000
0000
0000
,
0000
0000
0000
0010
,
0000
0000
0000
0000
,
0000
0000
0000
0000
,
0000
0000
1000
0000
,
0000
0000
0000
0000
,
0000
0000
0010
0000
,
0000
0000
0000
0000
,
0000
0000
0100
0000
,
0000
0000
0000
0000
,
0000
0000
0001
0000
,
0000
0000
0000
0000
,
0000
0000
1001
0000
,
0000
0000
0010
0000
,
0000
0000
1001
0000
,
0000
0000
0100
0000
,
0000
0000
1001
0000
,
0000
0000
0010
0000
,
0000
0000
1001
0000
,
0000
0000
0010
0000
,
0000
0000
1000
0000
,
0000
0000
0000
0000
,
0000
0000
0100
0000
,
0000
0000
0000
0000
,
0000
0000
0010
0000
,
0000
0000
0000
0000
,
0000
0000
0001
0000
,
0000
0000
0000
0000
,
0000
0000
0001
0000
,
0000
0000
0000
0000
,
0000
0000
0010
0000
,
0000
0000
0000
0000
,
0000
0000
0100
0000
,
0000
0000
0000
0000
,
0000
0000
0010
0000
;

//---------------dance-single - ----------------
#NOTES:
     dance-single:
     :
     Easy:
     7:
     0.419,1.000,0.338,0.330,0.000,295.000,44.000,43.000,30.000,0.000:
0000
0000
0000
0000
,
0000
0000
0000
0000
,
0000
0000
0000
0000
,
0000
0000
0000
0000
,
1000
0000
0001
0000
,
0100
0000
0010
0000
,
1000
0000
0010
0000
,
0100
0000
0100
0000
,
0010
0000
1000
0000
,
0001
0000
0100
0000
,
0010
0000
1000
0000
,
0001
0000
0001
0000
,
2000
0000
0000
0000
,
3002
0000
0000
0000
,
1003
0000
1000
0000
,
1000
0000
1001
0000
,
0020
0000
0000
0000
,
0230
0000
0000
0000
,
0310
0000
0010
0000
,
0010
0000
1001
0000
,
2020
0000
0000
3030
,
0202
0000
0000
0303
,
0022
0000
0000
0033
,
2100
0100
0000
0001
,
3100
0000
0010
0000
,
1000
0000
1000
0000
,
0010
0000
1000
0000
,
0001
0000
0100
0000
,
0002
1003
0200
0000
,
0000
0000
0000
0000
,
0000
0000
0310
1000
,
0002
0000
0000
0000
,
0000
0000
0000
0000
,
0000
0000
0003
0000
,
0000
1000
0000
0010
,
0000
1000
0000
0010
,
0000
1000
0000
0010
,
0000
1000
0000
0010
,
0000
1000
0000
0010
,
0000
1000
0000
0010
,
0000
1000
0000
1000
,
0000
1000
0000
1000
,
0000
0001
0000
0100
,
0000
0001
0000
0100
,
0000
0001
0000
0100
,
0000
0001
0000
0100
,
0000
0001
0000
0100
,
0000
0001
0000
0100
,
0000
0001
0000
0001
,
0000
0001
0000
0001
,
0000
1000
0000
1000
,
0000
0010
0000
0010
,
0000
0200
0000
0000
,
0000
0310
0000
0000
,
0000
0010
0000
0010
,
0000
1000
0000
1000
,
0000
0002
0000
0000
,
0000
0103
0000
0000
,
0000
0010
0000
1000
,
0000
0010
0000
0100
,
0000
0002
0000
0000
,
0000
1000
0003
0000
,
0000
0010
0000
1000
,
0000
0000
0100
0000
,
0000
0000
0000
0010
,
0000
0021
0000
0031
,
0000
1000
0100
0010
,
0001
1000
0100
1000
,
0100
0010
0000
0001
,
0010
0000
0000
0000
,
0000
0000
0000
0000
,
0000
0000
0000
0000
,
0000
0000
0000
0000
,
0000
0000
0000
0000
,
0000
0000
0000
0000
,
0000
0000
0000
0000
,
0000
0000
0000
0000
,
0000
0000
0000
0000
,
0000
0000
0000
0000
,
0000
0000
0000
0000
,
0000
0000
M000
00M0
,
0M00
000M
M000
0M00
,
000M
00M0
0M00
000M
,
0000
0000
0000
0000
,
0000
0000
0000
0000
,
0000
0000
0000
0000
,
0000
0000
0000
0000
,
0000
0000
0000
0000
,
0000
0000
0000
0000
,
0000
0000
0000
0000
,
0000
0000
0000
0000
,
0000
0000
0000
0000
,
0000
0000
0000
1000
,
0000
0001
0000
1000
,
0000
0001
0000
1000
,
0010
0000
0000
0000
,
0000
0000
0000
0000
,
0000
0000
0000
0000
,
0000
0000
0000
0000
,
0000
0000
0000
0000
,
0000
0000
0000
0000
,
0000
0000
0000
0000
,
0000
0000
0000
0000
,
0000
0000
0000
0000
,
0000
0000
0000
0000
,
0000
0000
0000
0000
,
0000
0000
0000
0000
,
0000
0000
0000
0000
,
0000
0000
0M00
000M
,
0MM0
M000
000M
M0M0
,
0M0M
0000
0000
2002
,
3003
0000
0000
1000
0010
0100
0001
1000
,
0100
0010
0002
0000
0000
0000
0013
0000
,
0010
0000
1001
0000
0010
0100
0010
0100
,
0010
0000
1000
0001
1000
0001
2000
0000
,
3100
0010
0011
1000
,
0001
0100
0010
1000
,
0100
0000
0000
0010
0000
0000
0000
0000
,
0001
0000
1000
0010
0100
0000
0002
0000
,
0203
0320
1030
0020
,
0230
0302
0000
1003
,
0000
0100
0000
0010
,
0000
0001
0000
1001
,
0000
0001
1000
0000
,
0000
0MM0
0000
1000
,
0000
0100
0000
0010
,
0000
0001
0000
1001
,
0000
0001
1000
0000
,
0000
0MM0
0000
0001
,
0000
0010
0000
0100
,
0000
1000
0000
0110
,
0000
0001
1000
0000
,
00MM
0000
0000
0010
,
0000
0100
0000
0001
,
0000
1000
0000
0110
,
0000
0010
0100
0000
,
M00M
0MM0
0000
0000
0000
0000
0220
0000
,
0330
0000
2002
3003
0000
0000
0000
0000
,
0000
0000
0000
0000
,
2200
3300
0000
0000
0000
0000
0022
0033
,
0000
0000
0000
0000
,
2002
3003
0000
0000
0020
0000
0000
0000
,
0000
0000
0000
0000
,
0000
0030
0200
0000
,
0000
0000
0000
0000
,
0000
0000
0302
0000
,
0000
0000
0000
0000
,
0000
0000
2003
0000
,
0000
0000
0000
0000
,
0000
0000
3100
0000
,
0010
0000
0001
0000
,
1000
0000
0010
0000
,
0100
0000
0010
0000
,
1000
0000
0001
0000
,
0100
0000
0010
0000
,
0100
0000
0001
0000
,
0010
0000
0100
0000
,
1000
0000
0100
0000
,
0010
0000
0001
0000
,
0010
0000
0200
0000
,
0000
0000
0000
0000
,
0000
0000
0300
0000
,
0000
0000
1000
1000
,
1001
0000
0001
0000
0100
0000
0010
0100
,
0000
0000
0001
0001
,
1001
0000
1000
0000
0010
0000
0100
0001
,
0000
0000
1000
0100
,
0010
0000
0001
0000
1100
0000
0010
0001
,
0000
0000
0010
0100
,
1000
0000
0010
0000
0101
0000
0010
1000
,
0000
0000
0110
0110
,
0110
0000
0110
0000
1001
0000
0001
1000
,
0000
0000
1001
1001
,
1001
0000
1001
0000
0110
0000
0001
1000
,
0000
0000
0011
0011
,
0011
0000
0011
0000
1100
0000
0100
0010
,
0000
0000
0101
0101
,
0101
0000
0101
0000
1010
0000
0100
0001
,
0000
0000
1000
0000
,
0000
0000
0010
0000
,
0000
0000
0100
0000
,
0000
0000
0001
0000
,
0000
0000
1000
0000
,
0000
0000
0010
0000
,
0000
0000
0100
0000
,
0000
0000
0001
0000
,
0000
0000
1000
0000
,
0000
0000
0100
0000
,
0000
0000
0001
0000
,
0000
0000
0010
0000
,
0000
0000
0000
0100
,
0000
0000
1000
0000
,
0000
0000
0010
0000
,
0000
0000
0100
0000
,
0000
0000
1001
0000
;

//---------------dance-single - ----------------
#NOTES:
     dance-single:
     :
     Medium:
     9:
     0.660,1.000,0.154,0.453,0.054,522.000,20.000,59.000,46.000,0.000:
0000
0000
0000
0000
,
0000
0000
0000
0000
,
0000
0000
0000
0000
,
0000
0000
0000
0000
,
1000
0010
1000
0100
,
1000
0010
1000
0100
,
1000
0010
0100
0001
,
0100
0010
1000
0000
,
0001
0010
0001
0100
,
0001
0010
0001
0100
,
0001
0010
0001
0100
,
0010
1000
0001
0000
,
0200
0000
0310
0000
,
0020
0000
1030
0000
,
0010
0000
1000
0001
,
0000
0001
1000
0000
,
0002
0000
0103
0000
,
0020
0000
1030
0000
,
0001
0000
0100
0010
,
0000
0010
1000
0000
,
0001
0010
0100
1000
,
0200
0000
0320
0000
,
0031
0100
0010
1000
,
0010
1001
0000
1001
,
0001
0100
0010
0100
,
0001
0100
0010
1000
,
0100
0010
0001
0100
,
0010
1000
0010
0100
,
0020
0030
0202
M0M0
,
0000
M0M0
0000
M0M0
,
0000
0000
M3M3
0000
00M0
M000
0000
000M
,
2200
0000
0000
0000
,
0000
0000
0000
0000
,
0000
0000
3300
0000
0000
M0M0
0M0M
00M0
,
M00M
0010
0100
0010
,
1000
0010
0100
0010
,
1000
0010
0100
0001
,
0100
0001
0100
0010
,
0100
0010
1000
0100
,
0010
0001
1000
0100
,
0010
0200
0000
000M
,
M0M0
000M
M0M0
0000
,
0300
0010
0001
1000
,
0100
0010
0001
1000
,
0010
0100
0001
0100
,
0010
1000
0001
0100
,
0010
0100
0001
1000
,
0100
0010
0001
1000
,
0100
0020
0000
0032
,
0000
2003
0000
3020
,
0000
0130
0001
0100
,
0001
0100
0010
0100
,
0001
0200
0300
0010
,
2000
0000
3000
0000
,
0000
0001
1000
0001
,
0010
0001
1000
0100
,
1000
0002
0003
1000
,
0020
0000
0030
0000
,
0000
0100
0001
1000
,
0010
1000
0001
0100
,
0001
2000
3000
0010
,
0200
0000
0300
0000
,
0000
0010
1000
0001
,
0000
0000
1001
0000
,
0000
0000
0000
1010
,
0000
0010
1000
0002
,
0000
1003
0000
1000
,
0000
1000
0000
1000
,
0000
1000
0000
0010
,
0100
0000
0000
0000
,
0000
0000
0000
0000
,
0000
0000
0000
0000
,
0000
0000
0000
0000
,
0000
0000
0000
0000
,
0000
0000
0000
0000
,
0000
0000
0000
0000
,
0000
0000
0000
0000
,
0000
0000
0000
0000
,
0000
0000
0000
0000
,
0000
0000
0000
0000
,
1000
0000
1000
0000
,
1000
0000
1000
0000
,
0001
0000
0100
0010
,
0000
0000
0000
0000
,
0000
0000
0000
0000
,
0000
0000
0000
0000
,
0000
0000
0000
0000
,
0000
0000
0000
0000
,
0000
0000
0000
0000
,
0000
0000
0000
0000
,
0000
0000
0000
0000
,
0000
0000
0000
0000
,
0000
000M
0000
000M
,
0000
000M
0000
000M
,
0000
000M
0000
M000
,
0M00
0000
0000
0000
,
0000
0000
0000
0000
,
0000
0000
0000
0000
,
0000
0000
0000
0000
,
0000
0000
0000
0000
,
0000
0000
0000
0000
,
0000
0000
0000
0000
,
0000
0000
0000
0000
,
0000
0000
0000
0000
,
0000
0000
0000
0000
,
0000
0000
0000
0000
,
0000
0000
0000
0000
,
0000
0000
0000
0000
,
0001
0000
0001
0000
,
0001
0000
0001
0000
,
1001
0000
0011
2200
,
0300
0000
0000
0000
0000
0000
3001
0000
1000
0000
0001
0000
1000
0000
0001
0010
,
0001
0010
0002
0000
0000
1000
0003
0000
0000
0000
0000
0000
1001
0000
0000
0000
,
0001
0010
0001
0000
1000
0010
0100
0010
,
1000
0000
0000
0000
0001
1000
0010
0100
0001
0000
0001
0000
0200
0000
0000
0000
,
0310
1000
0001
1000
0001
0100
0010
0000
,
1000
0001
0010
0000
0100
1000
0010
0000
,
0110
0000
0000
0101
0000
0000
0000
0000
,
1010
0000
0000
0000
0010
0000
0100
0000
0001
0000
0000
0001
0100
0000
0100
0000
,
0010
0010
1000
1000
0001
0001
1000
0100
,
0010
0001
1000
0100
1000
0100
1000
0000
,
0010
1000
0100
1000
,
0001
0010
0001
1000
,
0000
0020
0130
0000
,
0000
0000
0000
1000
,
0010
1000
0100
1000
,
0001
0010
0001
1000
,
0000
0200
0310
0000
,
0000
0000
0000
0001
,
0010
0100
1000
0010
,
0100
0001
1000
0010
,
0000
2000
3001
0000
,
0000
0000
0000
0010
,
1000
0001
0100
0010
,
0100
0001
1000
0010
,
0000
0200
0301
0000
,
0000
0000
0000
0000
0000
0000
0000
M000
,
0000
00M0
0M00
M002
0000
00M0
0003
0000
0000
0200
0000
0000
,
0300
0000
0000
0000
0000
000M
0000
0M00
0000
00M0
0000
M000
0000
0000
0000
0000
,
0220
0000
0330
0000
0000
M000
0022
0000
,
0033
0000
0000
0000
0000
0000
0M00
0000
00M0
0000
M00M
0000
0000
0M00
0000
0000
,
2002
3003
0010
1000
,
0010
1000
0010
1000
,
0010
0010
0100
0001
,
0100
0001
0100
0001
,
0100
0100
0010
1000
,
0001
0100
0010
1000
,
0001
0001
1000
0100
,
0010
0001
1000
0010
,
0100
0100
0001
0010
,
0100
1000
0010
0100
,
0001
0001
1000
0100
,
0010
0100
1000
0010
,
0100
0100
0001
0010
,
0100
1000
0010
0100
,
0001
0001
1000
0100
,
1000
0001
0010
0001
,
1000
1000
0010
0100
,
0010
0100
0010
0100
,
0010
0100
2002
0000
,
0000
0000
0000
0000
,
0000
0000
0000
0000
,
0000
0000
3003
0000
0010
0100
0001
1000
,
0010
0100
0001
0010
0100
0000
0100
1000
,
0000
0000
0000
0000
0001
0100
0010
0100
,
0001
1000
0010
0100
0001
0000
1000
0100
,
0000
0000
0000
0000
0010
0001
1000
0100
,
1000
0001
0010
0001
1000
0000
0010
0100
,
0000
0000
0000
0000
0010
1000
0001
0100
,
0001
0010
0100
1000
0010
0000
0100
0001
,
0000
0000
0000
0000
1000
0100
1000
0100
,
0010
0100
0010
0100
1000
0000
1000
0100
,
0010
0000
0001
0010
0100
1000
0010
0100
,
0010
1000
0010
0100
0001
0000
1000
1001
,
0000
0000
0000
0000
0001
0010
0001
0010
,
0100
0010
0100
0010
0001
0000
0001
0010
,
0100
0000
1000
0100
0010
0001
0100
0010
,
0100
0001
0100
0010
1000
0000
0001
1001
,
0000
0000
1000
0100
,
0010
0001
1000
0010
,
0100
0001
2000
3000
,
0020
0030
0200
0300
,
0002
0003
1000
0100
,
1000
0001
0010
0001
,
0100
0010
2000
3000
,
0020
0030
0200
0300
,
0002
0003
1000
0100
,
0010
0001
0100
0010
,
0100
0001
2000
3000
,
0020
0030
0200
0300
,
0002
0003
1000
0010
,
0100
0001
0100
0010
,
1000
0010
0200
0300
,
0002
0003
2000
3000
,
0020
0000
0030
0000
0000
2002
0000
0000
,
0000
0000
0000
0000
,
0000
0000
0000
0000
0000
3003
0000
0000
;
